Автор Тема: SX6 проблемы проигрывателя DLNA  (Прочитано 4682 раз)

0 Пользователей и 1 Гость просматривают эту тему.

Оффлайн RifFox

  • Newbie
  • *
  • Сообщений: 3
SX6 проблемы проигрывателя DLNA
« : 12 Сентябрь 2014 10:17:28 »
Здравствуйте!

решил попросить помощи в одном  вопросе - возможно кто-то уже стыкался с такими проблемами и как-то их решил.

Став обладателем данного аппарата (SX6) хотел избавиться от медиаплеера филипс... но не тут-то было.
С проигрыванием контента с сервера DLNA опенбокс SX6 почему-то глючит ужасно. Для сравнения рядом оставил тот-же филипс и открывал на нем те-же файлы с того-же сервера по той-же сети. Видеоконтент например такой:

  Metadata:
    encoder         : libebml v1.0.0 + libmatroska v1.0.0
  Duration: 00:43:38.30, start: 0.000000, bitrate: 6010 kb/s
    Stream #0:0: Video: h264 (High), yuv420p, 1920x1080 [SAR 1:1 DAR 16:9], 23.98 fps, 23.98 tbr, 1k tbn, 47.95 tbc (default)
    Stream #0:1: Audio: ac3, 48000 Hz, stereo, fltp, 384 kb/s (default)
    Stream #0:2: Audio: ac3, 48000 Hz, stereo, fltp, 384 kb/s

Начинает проигрывать вроде нормально, но через несколько минут начинает притормаживать (изображение как-бы на стоп кадре, звук идет нормально, потом изображение перескакивает на нужный кадр и продолжает идти номально до следующего затыка). Со временем притормаживает все на дольше и все чаще. Пауза не помогает. Стоп и плей сначала перезапускают процесс.
Перемотка работает, но если мотнуть на середину то ждать придется минут 5 если не больше.
Переключение звуковой дорожки тоже не работает. Желтая кнопка - ноль реакции.
время от времени тюнер просто виснет.

филипс этих проблем не имеет. Учитывая что он работает в той-же сети, с тем-же сервером и теми-же файлами - проблема явно в проигрываетеле.

Заранее спасибо.

Оффлайн RifFox

  • Newbie
  • *
  • Сообщений: 3
Re: SX6 проблемы проигрывателя DLNA
« Ответ #1 : 20 Октябрь 2014 13:32:43 »
Неужели у всех нормально работает?

На днях решил "справиться" с проблемой простым перекодированием из 1920х1280 в 1280х720 с уменьшением битрейта соответственно... Некоторым файлам помогло, с некоторыми стало еще хуже. Один файл вообще на 5 секунде просмотра вырубает тюнер (пропадает изображение и звук, гаснет информационный экран и тюнер перестает реагировать на что-либо. лечится выдергиванием из сети). Другие файлы затыкают видео (на экране постоянно висит кадр на котором завис просмотр. выход к просмотру спутниковых каналов ничего не дают, но звук при этом идет нормально. поверх залипшего кадра нормально рисуется меню. лечится перезагрузкой.) Очень часто после просмотра видео следующее видео запустить уже невозможно (изображение пропадает на секунду и опять вываливается к выбору фильма. лечится перезагрузкой).
Притом все файлы нормально идут на других устройствах, включая планшет и даже телефон.

Вот такие глюки.

Оффлайн Merlin

  • Newbie
  • *
  • Сообщений: 1
Re: SX6 проблемы проигрывателя DLNA
« Ответ #2 : 13 Ноябрь 2015 13:21:06 »
Можно как-то просто на тюнере открыть расшаренные папки в ПК? А не пользоваться DLNA? Еще на ПК программу ставить отдельную нужно.
Сейчас пользуюсь внешним плеером DUNE, там просто плеер видит сетевые папки. А на тюнере не могу понять можно так или нет? Думал, что с тюнера можно будет смотреть фильмы, а там даже звуковую дорожку сменить нельзя, да и много чего еще не удобного и не полная информация о файле, перемотка в видео, это вообще долго и неудобно.
Встроенный плеер это бесполезная штука, им только смотреть записанное со спутника.

У кого-то читает тюнер 3ТБ диски? Похоже поддерживаются до 2ТБ. Это примерно тоже самое, если машины будут выпускать с баком на пару литров, и нужно покупать кучу канистр по пару литров и всю машину ими обвешивать, чтобы куда-то доехать.